Pagina 1 di 1

[RISOLTO] convertire in mp3 con ffmpeg

Inviato: dom mag 26, 2013 12:08
da varjag
Buon giorno :-)
Sto cercando di convertire alcuni file audio in formato di mp3 con ffmpeg senza successo...
Uso Slackware64 14 multilib.
ffmpeg-0.11.2-x86_64-1alien

Codice: Seleziona tutto

bash-4.2$ ffmpeg -i m.3ga m.mp3
ffmpeg version 0.11.2 Copyright (c) 2000-2012 the FFmpeg developers
  built on Sep 28 2012 00:21:41 with gcc 4.7.1
  configuration: --prefix=/usr --libdir=/usr/lib64 --shlibdir=/usr/lib64 --mandir=/usr/man --enable-gpl --enable-version3 --enable-postproc --enable-avfilter --enable-libass --enable-libdc1394 --enable-libgsm --enable-libopencore-amrnb --enable-libopencore-amrwb --enable-librtmp --enable-libschroedinger --enable-libspeex --enable-libtheora --enable-libv4l2 --enable-libvo-amrwbenc --enable-libvpx --enable-libx264 --enable-runtime-cpudetect --enable-vaapi --disable-vdpau --enable-memalign-hack --enable-pthreads --enable-x11grab --enable-bzlib --enable-zlib --enable-shared --enable-static --disable-debug --arch=x86_64 --enable-pic --extra-cflags='-I/tmp/build/tmp-ffmpeg/ffmpegdeps/usr/include -DRUNTIME_CPUDETECT' --extra-ldflags='-L/tmp/build/tmp-ffmpeg/ffmpegdeps/usr/lib64 -ldl -lssl -lcrypto -lz -lusb'
  libavutil      51. 54.100 / 51. 54.100
  libavcodec     54. 23.100 / 54. 23.100
  libavformat    54.  6.100 / 54.  6.100
  libavdevice    54.  0.100 / 54.  0.100
  libavfilter     2. 77.100 /  2. 77.100
  libswscale      2.  1.100 /  2.  1.100
  libswresample   0. 15.100 /  0. 15.100
  libpostproc    52.  0.100 / 52.  0.100
Input #0, mov,mp4,m4a,3gp,3g2,mj2, from 'm.3ga':
  Metadata:
    major_brand     : 3gp4
    minor_version   : 0
    compatible_brands: isom3gp4
    creation_time   : 2013-05-26 08:05:36
  Duration: 00:00:33.76, start: 0.000000, bitrate: 63 kb/s
    Stream #0:0(eng): Audio: aac (mp4a / 0x6134706D), 44100 Hz, mono, s16, 61 kb/s
    Metadata:
      creation_time   : 2013-05-26 08:05:36
      handler_name    : SoundHandle
Output #0, mp3, to 'm.mp3':
  Metadata:
    major_brand     : 3gp4
    minor_version   : 0
    compatible_brands: isom3gp4
    creation_time   : 2013-05-26 08:05:36
    Stream #0:0(eng): Audio: none, 0 channels, 128 kb/s
    Metadata:
      creation_time   : 2013-05-26 08:05:36
      handler_name    : SoundHandle
Stream mapping:
  Stream #0:0 -> #0:0 (aac -> ?)
Encoder (codec none) not found for output stream #0:0


Come si risolve?
Buona domenica :-)

Re: convertire in mp3 con ffmpeg

Inviato: dom mag 26, 2013 12:19
da ponce
hai scaricato il pacchetto dal suo repository generale e non da quello che contiene i pacchetti che hanno licenze "restricted" (come l'encoder mp3) e non possono essere redistribuiti negli States

http://taper.alienbase.nl/mirrors/peopl ... ackbuilds/

Re: convertire in mp3 con ffmpeg

Inviato: dom mag 26, 2013 12:50
da varjag
Sei un mito!!!
grazie..
ho combattuto per qualche giorno con questo problema..
ho scaricato e ho installato il pachetto ffmpeg di slacky con relative dependenze, pero mi dava seguente errore

Codice: Seleziona tutto

bash-4.2$ ffmpeg -i m.3ga m.mp3
ffmpeg: error while loading shared libraries: libxavs.so.1: cannot open shared object file: No such file or directory

adesso ho installato il pachetto da te sugerito e tutto andato a buon fine.
Io faccio un po di confusione riguarda gestione dei pachetti..
Le dipendenze relative a ffmpeg ho scaricato e installato da slacky, e invece pachetto di ffmpeg รจ di alien.
Questo non mi crea doppi dipendenze o altri problemi ?

Re: convertire in mp3 con ffmpeg

Inviato: dom mag 26, 2013 15:34
da ponce
no, perche' nell'ffmpeg di alien le librerie sono compilate come statiche.

Re: [RISOLTO] convertire in mp3 con ffmpeg

Inviato: dom mag 26, 2013 16:32
da varjag
Grazie per aiuto
Buona domenica