La ricerca ha trovato 960 risultati

da Burroughs
gio 4 mag 2023, 16:28
Forum: Libera
Argomento: [RISOLTO] Script per ordinare elenco brani CD
Risposte: 8
Visite : 1934

Re: [RISOLTO] Script per ordinare elenco brani CD

Ancora una volta, a quasi vent'anni dalla mia iscrizione su questo forum, ogniqualvolta ho dei problemi/dubbi/curiosità, questi vengono non solo affrontati ma risolti. Ringrazio in modo particolare rik, sì, beets è proprio ciò che cercavo, interfaccia minimale ma potentissimo e completo. :thumbright...
da Burroughs
mer 3 mag 2023, 20:28
Forum: Libera
Argomento: [RISOLTO] Script per ordinare elenco brani CD
Risposte: 8
Visite : 1934

Re: Script per ordinare elenco brani CD

Ho analizzato i file FLAC generati dall'estrazione dell'mkv di partenza (questo l'ho fatto sia con Meta che con MusicBrainz Picard) e risultano privi di metadati. Il file mkv originario, riaprendolo con makeMKV, mi segnala solo il numero dei capitoli; non c'è alcuna indicazione riguardante autore, t...
da Burroughs
mer 3 mag 2023, 17:27
Forum: Libera
Argomento: [RISOLTO] Script per ordinare elenco brani CD
Risposte: 8
Visite : 1934

Re: Script per ordinare elenco brani CD

Grazie per l'aiuto, ragazzi, ma a me, per questioni di praticità, servirebbe una sorta di abcde che, invece di interrogare la periferica a cui è collegato il lettore ottico, andasse ad interrogare una directory qualunque, impostata dall'utente, ovviamente.
da Burroughs
mer 3 mag 2023, 11:56
Forum: Libera
Argomento: [RISOLTO] Aiuto su mkvextract (estrazione audio da file mkv)
Risposte: 32
Visite : 4557

Re: [RISOLTO] Aiuto su mkvextract (estrazione audio da file mkv)

Grazie ancora, joe...
La quadratura del cerchio sarebbe rappresentata dalla risoluzione di questo problema, successivo a quello di cui abbiamo discusso... :doubt: :doubt: :doubt:
da Burroughs
mar 2 mag 2023, 20:01
Forum: Libera
Argomento: [RISOLTO] Aiuto su mkvextract (estrazione audio da file mkv)
Risposte: 32
Visite : 4557

Re: [RISOLTO] Aiuto su mkvextract (estrazione audio da file mkv)

Se non ho capito male, questo è l'output: Macandy:Blu-ray alutri$ rm -rf file-pippo.flac && ffmpeg -hide_banner -i tracks-002.out -c:a flac file-pippo.flac && echo --- && ffmpeg -hide_banner -i file-pippo.flac Guessed Channel Layout for Input Stream #0.0 : stereo Input #0, wav, from 'tracks-002.out'...
da Burroughs
mar 2 mag 2023, 15:26
Forum: Libera
Argomento: [RISOLTO] Aiuto su mkvextract (estrazione audio da file mkv)
Risposte: 32
Visite : 4557

Re: [RISOLTO] Aiuto su mkvextract (estrazione audio da file mkv)

Questo è l'output che ottengo, se non ho capito male: Macandy:Blu-ray alutri$ rm tracks-002.out.flac && ffmpeg -hide_banner -i tracks-002.out -c:a flac tracks-003.out.flac && echo --- && ffmpeg -hide_banner -i tracks-002.out.flac Guessed Channel Layout for Input Stream #0.0 : stereo Input #0, wav, f...
da Burroughs
mar 2 mag 2023, 12:25
Forum: Libera
Argomento: [RISOLTO] Aiuto su mkvextract (estrazione audio da file mkv)
Risposte: 32
Visite : 4557

Re: [RISOLTO] Aiuto su mkvextract (estrazione audio da file mkv)

Al momento l'unico file estratto che ho a portata di mano è questo: alutri@Gacklan:/volume1/music/XTC/10- Nonsuch [1992]$ ffmpeg -hide_banner -i 18.\ Didn\'t\ Hurt\ a\ Bit.flac 2>&1|grep Stream Stream #0:0: Audio: flac, 96000 Hz, stereo, s32 (24 bit) Mi sembra confermare quanto ti avevo scritto prima.
da Burroughs
dom 30 apr 2023, 18:44
Forum: Libera
Argomento: [RISOLTO] Script per ordinare elenco brani CD
Risposte: 8
Visite : 1934

[RISOLTO] Script per ordinare elenco brani CD

Un rinnovato saluto a tutti, ragazzi. Faccio seguito al thread di qualche giorno fa per il quale ringrazio ancora joe per il prezioso e decisivo aiuto prestatomi. Vi espongo lo scenario: uno scrittarello molto semplice, che joe mi ha aiutato a scrivere, mi permette di estrarre i capitoli (brani) di ...
da Burroughs
sab 29 apr 2023, 23:36
Forum: Libera
Argomento: [RISOLTO] Aiuto su mkvextract (estrazione audio da file mkv)
Risposte: 32
Visite : 4557

Re: Aiuto su mkvextract (estrazione audio da file mkv)

[UPDATE]: tenuto conto delle tue indicazioni e dei risultati ottenuti, ho modificato uno dei tuoi comandi in questo modo: for i in tracks*out;do ffmpeg -i $i -c:a flac ${i}.flac -aq 0 -ac 8 -sample_fmt s32 -ar 192000; done Adesso il risultato finale è quello desiderato: Macandy:Blu-ray alutri$ ffmp...
da Burroughs
sab 29 apr 2023, 23:21
Forum: Libera
Argomento: [RISOLTO] Aiuto su mkvextract (estrazione audio da file mkv)
Risposte: 32
Visite : 4557

Re: Aiuto su mkvextract (estrazione audio da file mkv)

Joe, ti posto gli output, cominciando dall'mkv: Macandy:Blu-ray alutri$ ffmpeg -hide_banner -i nonsuch.mkv 2>&1 |grep 'Stream' Guessed Channel Layout for Input Stream #0.1 : stereo Guessed Channel Layout for Input Stream #0.2 : stereo Stream #0:0(eng): Video: h264 (High), yuv420p(tv, bt709, progress...
da Burroughs
sab 29 apr 2023, 14:26
Forum: Libera
Argomento: [RISOLTO] Aiuto su mkvextract (estrazione audio da file mkv)
Risposte: 32
Visite : 4557

Re: Aiuto su mkvextract (estrazione audio da file mkv)

Grazie ancora, joe.
Mi sono fatto uno scrittarello che automatizza la procedura.
La cosa che non mi piace però è che alla fine ho ottenuto dei file di qualità (44.1kHz-16 bit) inferiore rispetto a quelli che avevo ottenuto rippando il CD (non il Blu-ray) originale.
da Burroughs
ven 28 apr 2023, 11:55
Forum: Libera
Argomento: [RISOLTO] Aiuto su mkvextract (estrazione audio da file mkv)
Risposte: 32
Visite : 4557

Re: Aiuto su mkvextract (estrazione audio da file mkv)

Grandissimo, joe, grazie! Ho pochissimo tempo per cui ho fatto una prova grossolana; l'unica differenza sostanziale che ho notato è che alla fine, seguendo la procedura che mi hai indicato, ottengo dei generici file wav: Macandy:Blu-ray alutri$ file pippo-005.out pippo-005.out: RIFF (little-endian) ...
da Burroughs
gio 27 apr 2023, 20:02
Forum: Libera
Argomento: [RISOLTO] Aiuto su mkvextract (estrazione audio da file mkv)
Risposte: 32
Visite : 4557

Re: Aiuto su mkvextract (estrazione audio da file mkv)

Joe, premetto che non uso Linux, sono su un mac anche se la shell è una bash. Ho riprovato anche con un altro file, l'output non mi restituisce nulla né mi segnala errore. Riguardo alla pseudo-flac che ottengo, VLC, mpv e compagnia cantante lo considerano un file audio e Spek mi genera lo spettrogra...
da Burroughs
gio 27 apr 2023, 17:35
Forum: Libera
Argomento: [RISOLTO] Aiuto su mkvextract (estrazione audio da file mkv)
Risposte: 32
Visite : 4557

Re: Aiuto su mkvextract (estrazione audio da file mkv)

Allora, il primo comando che hai postato non mi restituisce nulla, il secondo mi dà questo: Macandy:Downloads alutri$ file audio.flac audio.flac: data mkvtoolnix, se gli specifichi i capitoli interessati, sì, ti crea tutti i file in un'unica operazione, ma si tratta di file mkv che bisognerà estrarr...
da Burroughs
gio 27 apr 2023, 17:10
Forum: Libera
Argomento: [RISOLTO] Aiuto su mkvextract (estrazione audio da file mkv)
Risposte: 32
Visite : 4557

Re: Aiuto su mkvextract (estrazione audio da file mkv)

Ammetto di non essere un esperto quindi invito chi fosse interessato a fare le sue prove per conto proprio. Prima di tutto occorre estrarre i capitoli (brani) dal file mkv generato da makeMKV; la procedura viene spiegata in modo chiaro nel video su YouTube che è stato postato da joe. Una volta che è...